Loading...
Error

Вампиры средней полосы [1-3 серии из 8] (Антон Маслов) [2021 г., Детектив, комедия, фэнтези, WEBRip] Original

Статистика раздачи
Размер:  2,1 GB   |    Зарегистрирован:  24 дня   |    Скачан:  15 раз
Сидов:  2  |  0 KB/s  ]   Личеров:  0  |  0 KB/s  ]

* - сиды/пиры с внешних источников

   
 
Автор Сообщение

Ermoha Пол:Муж

22-Мар-2021 07:49

Вампиры средней полосы


Год выпуска: 2021
Жанр: Детектив, комедия, фэнтези
Страна: Россия
Режиссер: Антон Маслов
В ролях: Юрий Стоянов, Татьяна Догилева, Екатерина Кузнецова (II), Артём Ткаченко, Ольга Медынич, Михаил Гаврилов-Третьяков, Дмитрий Чеботарёв, Глеб Калюжный, Дмитрий Лысенков, Александр Устюгов, Александр Никольский, Маргарита Шилова, Виталия Корниенко, Вероника Лысакова, Алёна Фалалеева, Дмитрий Архангельский, Владислав Миллер, Владимир Брест, Мария Букнис, Владимир Котов (IV), Роман Максимов, Владимир Гарцунов, Максим Дромашко, Андрей Дроздов, Андрей Юртаев, Ян Решетников, Александр Недорезов, Артём Анашкин, Александр Сибирцев (II), Сергей Радуто, Александр Волков (II)
Сюжет фильма:
Смоленск — среднестатистический город, расположенный в средней полосе России. Лишь одно отличает Смоленск от любого другого провинциального города средней полосы — в Смоленске живут вампиры. Живут давно. Живут тихо. Живут по закону. Живут непримечательной жизнью обычной провинциальной семьи и вовсе не убивают людей. Хотя кровь, конечно, попивают. И вот когда в березовой роще под Смоленском находят обескровленных парней... Их мирная жизнь оказывается под угрозой. Возглавляет вампирскую «ячейку общества» самый старый вампир, дед Слава, он же Святослав Вернидубович, а следят за соблюдением вампирско-мирских законов «хранители» во главе с суровой Ириной Витальевной.
Качество видео: WEBRip

Продолжительность: 3 х ~ 00:55:00
Формат: AVI
Видео: XviD, 720x304, ~ 1599 kbps
Аудио: русский, оригинал, AC3, 192 kbps
General
Complete name : C:\Users\User\Desktop\Вампиры средней полосы .2021.WEB-DLRip.Files-x\01. Вампиры средней полосы .2021.WEB-DLRip.Files-x.avi
Format : AVI
Format/Info : Audio Video Interleave
File size : 746 MiB
Duration : 57mn 53s
Overall bit rate : 1 802 Kbps
Writing application : VirtualDubMod 1.5.10.3 | www.virtualdub-fr.org || (build 2550/release)
Writing library : VirtualDubMod build 2550/release

Video
ID : 0
Format : MPEG-4 Visual
Format profile : Streaming Video@L1
Format settings, BVOP : Yes
Format settings, QPel : No
Format settings, GMC : No warppoints
Format settings, Matrix : Custom
Codec ID : XVID
Codec ID/Hint : XviD
Duration : 57mn 53s
Bit rate : 1 600 Kbps
Width : 720 pixels
Height : 304 pixels
Display aspect ratio : 2.35
Frame rate : 25.000 fps
Resolution : 24 bits
Colorimetry : 4:2:0
Scan type : Progressive
Bits/(Pixel*Frame) : 0.292
Stream size : 663 MiB (89%)
Writing library : XviD 73

Audio
ID : 1
Format : AC-3
Format/Info : Audio Coding 3
Codec ID : 2000
Duration : 57mn 53s
Bit rate mode : Constant
Bit rate : 192 Kbps
Channel(s) : 2 channels
Channel positions : L R
Sampling rate : 48.0 KHz
Stream size : 79.5 MiB (11%)
Alignment : Split accross interleaves
Interleave, duration : 40 ms (1.00 video frame)
Interleave, preload duration : 500 ms

Этот торрент недоступен для скачивания без регистрации, однако доступен по публичной magnet-ссылке (источники с публичных трекеров). Перед использованием ссылки прочтите, пожалуйста Пользовательское соглашение, а также как можно дольше оставайтесь на раздаче! Для того, чтобы скачать сам торрент-файл (который видит больше источников), а также для того, чтобы поблагодарить релизера, вам необходимо зарегистрироваться. Если регистрироваться лень - вы можете также попробовать скачать релиз по нашим партнерским ссылкам ниже. Кроме того, зарегистрированным пользователям не показывается всплывающая реклама при скачивании.

[underver.se].t202588.torrent
Трекер: Зарегистрирован   [ 26.03.2021 16:50 ]  

Статус: T временная (by eXtatik at 27.03.2021 05:57)
Поблагодарили: 1 человек
Тип торрента: публичный - доступные источники с открытых трекеров: 
Размер: 2,1 GB (занимает 0,48 DVDR, для записи нужно 1 болванка DVDR/RW)
 
 

igorx1972 

16-Апр-2021 13:57

а чё, дальше-то, блин, где?!

Яндекс.Метрика powered by Sphinx


В Н И М А Н И Е
Сайт не распространяет и не хранит электронные версии произведений, а лишь бесплатно и без коммерческой выгоды (не требуя взамен платы,
SMS и т.д.) предоставляет доступ к создаваемому пользователями каталогу ссылок на торрент-файлы, которые содержат только списки хеш-сумм.
Убедительная просьба с жалобами обращаться напрямую к пользователю, разместившему торрент файл.

Вверх